Skip to main content

Reason For Leaving Live at The Annex on 2007-09-18


Topics Live concert


01. intro
02. I Got The Blues
03. Wetter
04. Bitch Sticks
05. Tsunami
06. Shades Of Pain
07. Jimi tribute announcement
08. Purple Haze
09. Freedom
10. band schedule announcement
11. DJ's
12. Fancy Pantses
13. outtro
14. taper signout


Collection ReasonForLeaving
Band/Artist Reason For Leaving
Venue The Annex
Location Madison, WI

Source Neumann KM140's > Beyer MV100 > Sony PCM-M1 > DAT master
Lineage DAT master > Sony PCM-M1 > analog @ 48KHz > Audiomedia III PCI card > Powermac G3/266 > Protools 4.1.1 (convert to 44.1 KHz at "best" mode) > AIFF > Powermac G4/MDD-Dual 1.42 > Audacity 1.2.6 (tracking in 1/75 second intervals) > AIFF files > xACT 1.59 > FLAC (level 8)
Taped by morst
Transferred by morst

Notes

also appearing: Lenka Dusilova, Miss Fairchild

Source:
Neumann KM140's > Beyer MV100 > Sony PCM-M1 > DAT master
ORTF shock mounted cardioid condenser microphone pair with windscreens, on 6' stand, FoB, DFC

Transfer:
DAT master > Sony PCM-M1 > analog @ 48KHz > Audiomedia III PCI card > Powermac G3/266 > Protools 4.1.1 (convert to 44.1 KHz at "best" mode) > AIFF > Powermac G4/MDD-Dual 1.42 > Audacity 1.2.6 (tracking in 1/75 second intervals) > AIFF files > xACT 1.59 > FLAC (level 8)

taper:
TAS aka morst

notes:
http://www.myspace.com/reasonforleaving
http://www.myspace.com/missfairchild
http://www.myspace.com/lenkadusilova
http://www.intheannex.com

FoH audio mixed by John Dolby

01. intro
02. I Got The Blues
03. Wetter
04. Bitch Sticks
05. Tsunami
06. Shades Of Pain
07. Jimi tribute announcement
08. Purple Haze
09. Freedom
10. band schedule announcement
11. DJ's
12. Fancy Pantses
13. outtro
14. taper signout

shntool results:
length expanded size cdr WAVE problems filename
1:10.74 12522092 --- -- ---xx RFL2007-09-18t01.flac
10:13.16 108170876 --- -- ---xx RFL2007-09-18t02.flac
4:59.59 52882412 --- -- ---xx RFL2007-09-18t03.flac
5:19.02 56276348 --- -- ---xx RFL2007-09-18t04.flac
4:49.27 51043148 --- -- ---xx RFL2007-09-18t05.flac
7:56.38 84055820 --- -- ---xx RFL2007-09-18t06.flac
1:03.47 11223788 --- -- ---xx RFL2007-09-18t07.flac
4:03.21 42914636 --- -- ---xx RFL2007-09-18t08.flac
5:51.74 62090492 --- -- ---xx RFL2007-09-18t09.flac
1:15.36 13314716 --- -- ---xx RFL2007-09-18t10.flac
4:20.40 45958124 --- -- ---xx RFL2007-09-18t11.flac
6:29.66 68774876 --- -- ---xx RFL2007-09-18t12.flac
1:09.10 12195164 --- -- ---xx RFL2007-09-18t13.flac
0:51.70 9162176 -b- -- ---xx RFL2007-09-18t14.flac
59:34.55 630584668 B (totals for 14 files, 0.5690 overall compression ratio)

-=-=-=-=-=-=-=-=-=-=-=-=-=-=-=-=-=-=-=-=-=-=-=-=-
Soundscape Preservation Society Founded 1991
http://www.iamtypingwithonefinger.com/SPS.html
-=-=-=-=-=-=-=-=-=-=-=-=-=-=-=-=-=-=-=-=-=-=-=-=-

Reviews

Reviewer: morst - - September 24, 2007
Subject: Good one!
This is a nice tight show from the Er-fellers. Very few people in attendance, but the recording sounds great! Miss Fairchild brought the Boston funk to start things off, then Lenka Dusilova from Czech Republic played an intensely cool set of psychedelic rock. RFL had their work cut out for them, and at least nobody choked on vomit, unlike what happened 37 years before!
PEOPLE ALSO FOUND
Reason For Leaving
by Reason For Leaving
3,080
0
2
( 2 reviews )
Source: Neumann KM140's > Beyer MV100 > Sony SBM-1 (Oade mod) > Sony TCD-D100 DAT @48KHz
Reason For Leaving
by Reason For Leaving
13,714
0
1
( 1 reviews )
Source: Neumann KM140's (approx ORTF, FOB) > Beyer MV100 (+20dB gain) > Sony SBM-1 (Oade mod) > 48KHz S/Pdif > Sony PCM-M1
Reason For Leaving
by Reason For Leaving
791
0
0
Source: KM140 Matrix > DAT
Reason For Leaving
by Reason For Leaving
3,136
1
0
Source: KM140's > MV100 > TCD-D10 ProII
Reason For Leaving
by Reason For Leaving
495
1
0
Source: Neumann KM140s's > Beyer MV100 > Sony DAT
Reason For Leaving
by Reason For Leaving
693
1
0
Source: DSBD > DAT
Reason For Leaving
by Reason For Leaving
1,676
1
0
Source: KM140's > MV100 > DAT
Reason For Leaving
by Reason For Leaving
886
1
0
Source: SBD > M1
Reason For Leaving
by Reason For Leaving
643
1
0
Source: KM140's > MV100 > TCD-D10 ProII (Oade mod)
Reason For Leaving
by Reason For Leaving
1,003
1
0
Source: Neumann KM140’s > Beyer MV100>Sony SBM-1 (Oade mod)@48KHz > Sony TCD-D100 DAT